灵极客/零极客

 找回密码
 立即注册
灵极客
查看: 3052|回复: 55

[综合] 招魂2.The.Conjuring.2.2016.1080p.BluRay.x264-SPARKS

[复制链接]

424

主题

430

帖子

2736

积分

积分
2736
发表于 2016-8-27 20:17:55 | 显示全部楼层 |阅读模式
招魂2.The.Conjuring.2.2016.1080p.BluRay.x264-SPARKS



【影片信息】

◎译  名 招魂2 The Conjuring 2 (2016)
◎片  名 诡屋惊凶实录2(港) / 厉阴宅2(台) / 招魂2:恩菲尔德吵闹鬼 / The Conjuring 2: The Enfield Poltergeist
◎年  代 2016
◎国  家 美国
◎类  别 悬疑/惊悚/孔咘
◎语  言 英语
◎上映日期 2016-06-10(美国)
◎IMDb评分  8.2/10 from 14,284 users
◎片  长 133分钟
◎导  演 温子仁
◎编  剧  温子仁 / 凯利·海斯 / 查德·海斯 / 大卫·约翰逊
◎主  演 维拉·法米加
      帕特里克·威尔森
      弗兰西丝·奥康纳
      西蒙·迈克伯尼
      玛利亚·多耶·肯尼迪
      斯特林·杰里斯
      哈维尔·博特
      罗宾·阿特金·唐斯
      麦迪逊·沃尔夫
      斯蒂芬·考特尔
      西蒙·德兰尼
      Shannon Kook
      Abhi Sinha

【剧情简介】

  在《招魂2》中,《招魂1》主角维拉-法米加、帕特里克-威尔森等实力派演员也将全体回归。影片开始于北郊恩菲尔德发生一次超自然事件,讲述了20世纪70年代末期发生在英格兰恩菲德的招灵故事。

【种子概况】

The.Conjuring.2.2016.1080p.BluRay.x264-SPARKS.torrent

~资源版本~
1080p,蓝光,8.74GB,2小时13分钟,SPARKS

~视频参数~
编码:AVC/x264(高级视频编码)
分辨率:1920x800
码率:8711Kbps
显示比例:2.40:1
格式:mkv

~音频参数~
编码:AC3(杜比数码环绕声)
标准:Dolby Digital
声道:5.1声道
码率:640Kbps
语言:英语

【下载地址】

磁力链接(复制到BitTorrent、快车、旋风或迅雷等BT软件新建任务即可下载,也支持百度云等网盘离线下载)

magnet:?xt=urn:btih:6aa2f4b5cafd3f31e317558caac7bcfc0a1d02fd&dn=The.Conjuring.2.2016.1080p.BluRay.x264-SPARKS

种子文件(支持BitComet、BitTorrent、uTorrent、迅雷、旋风、快车等所有BT软件,如下不了请换一个链接)

thunder://QUFodHRwczovL3JhcmJnLnRvL2Rvd25sb2FkLnBocD9pZD15OGVmbzNoJmY9VGhlLkNvbmp1cmluZy4yLjIwMTYuMTA4MHAuQmx1UmF5LngyNjQtU1BBUktTLVtyYXJiZy5jb21dLnRvcnJlbnRaWg==
或 thunder://QUFtYWduZXQ6P3h0PXVybjpidGloOjZhYTJmNGI1Y2FmZDNmMzFlMzE3NTU4Y2FhYzdiY2ZjMGExZDAyZmRaWg==
或 thunder://QUFodHRwOi8vd3d3LmJ0YmJ0LmNjL2F0dGFjaC1kb3dubG9hZC1maWQtMTE4My1haWQtMzQxMzc1My5odG1aWg==


百度网盘(请保存或下载后把文件的扩展名改为"mkv",如失效请用磁力链接或电驴链接自行离线到百度网盘)

请自行用磁力链接离线到百度网盘(百度云),一般24小时后可以秒离!

【字幕文件】

招魂2 2016 中文字幕&中英字幕(校准BluRay版本)
游客,如果您要查看本帖隐藏内容请回复


【详细参数】

  1. The.Conjuring.2.2016.1080p.BluRay.x264-SPARKS

  2. Release.Date: 26.08.2016
  3. Video.......: X264 8711Kbps
  4. Frame.Rate..: 23.976
  5. Resolution..: 1920x800
  6. Audio.......: AC-3 640Kbps 6ch
  7. Language....: English
  8. Length......: 2h 13mn
  9. Source......: Retail BluRay
  10. Size........: 8954MB
  11. Subtitles...:  English, Spanish, Portuguese, French.

  12. Video
  13. ID                                       : 1
  14. Format                                   : AVC
  15. Format/Info                              : Advanced Video Codec
  16. Format profile                           : [email protected]
  17. Format settings, CABAC                   : Yes
  18. Format settings, ReFrames                : 5 frames
  19. Codec ID                                 : V_MPEG4/ISO/AVC
  20. Duration                                 : 2h 13mn
  21. Bit rate                                 : 8 711 Kbps
  22. Width                                    : 1 920 pixels
  23. Height                                   : 800 pixels
  24. Display aspect ratio                     : 2.40:1
  25. Frame rate mode                          : Constant
  26. Frame rate                               : 23.976 fps
  27. Color space                              : YUV
  28. Chroma subsampling                       : 4:2:0
  29. Bit depth                                : 8 bits
  30. Scan type                                : Progressive
  31. Bits/(Pixel*Frame)                       : 0.237
  32. Stream size                              : 8.14 GiB (93%)
  33. Writing library                          : x264 core 148 r2692 64f4e24
  34. Encoding settings                        : cabac=1 / ref=5 / deblock=1:0:0 / analyse=0x3:0x133 / me=umh / subme=7 / psy=1 / psy_rd=1.00:0.00 / mixed_ref=1 / me_range=16 / chroma_me=1 / trellis=1 / 8x8dct=1 / cqm=0 / deadzone=21,11 / fast_pskip=0 / chroma_qp_offset=-2 / threads=25 / lookahead_threads=4 / sliced_threads=0 / nr=0 / decimate=1 / interlaced=0 / bluray_compat=0 / constrained_intra=0 / bframes=3 / b_pyramid=2 / b_adapt=1 / b_bias=0 / direct=1 / weightb=1 / open_gop=0 / weightp=2 / keyint=250 / keyint_min=23 / scenecut=40 / intra_refresh=0 / rc_lookahead=40 / rc=2pass / mbtree=1 / bitrate=8711 / ratetol=1.0 / qcomp=0.60 / qpmin=0 / qpmax=69 / qpstep=4 / cplxblur=20.0 / qblur=0.5 / ip_ratio=1.40 / aq=1:1.00
  35. Language                                 : English
  36. Default                                  : Yes
  37. Forced                                   : No

  38. Audio
  39. ID                                       : 2
  40. Format                                   : AC-3
  41. Format/Info                              : Audio Coding 3
  42. Mode extension                           : CM (complete main)
  43. Format settings, Endianness              : Big
  44. Codec ID                                 : A_AC3
  45. Duration                                 : 2h 13mn
  46. Bit rate mode                            : Constant
  47. Bit rate                                 : 640 Kbps
  48. Channel(s)                               : 6 channels
  49. Channel positions                        : Front: L C R, Side: L R, LFE
  50. Sampling rate                            : 48.0 KHz
  51. Frame rate                               : 31.250 fps (1536 spf)
  52. Compression mode                         : Lossy
  53. Stream size                              : 613 MiB (7%)
  54. Language                                 : English
  55. Default                                  : Yes
  56. Forced                                   : No
复制代码
回复

使用道具 举报

0

主题

12

帖子

70

积分

积分
70
发表于 2016-8-27 21:45:24 | 显示全部楼层
招魂2.The.Conjuring.2.2016.1080p.BluRay.x264-SPARKS
回复

使用道具 举报

0

主题

1

帖子

6

积分

积分
6
发表于 2016-8-28 03:12:15 | 显示全部楼层
kan yi kan xie xie
回复

使用道具 举报

76

主题

77

帖子

462

积分

积分
462
发表于 2016-8-28 12:49:42 | 显示全部楼层
谢谢分享,非常不错的恐怖片
回复

使用道具 举报

0

主题

183

帖子

3611

积分

积分
3611
发表于 2016-8-28 15:57:28 | 显示全部楼层
我回复我快乐
回复

使用道具 举报

0

主题

1

帖子

6

积分

积分
6
发表于 2016-8-28 20:08:53 | 显示全部楼层
哈哈哈哈哈哈哈哈哈
回复

使用道具 举报

0

主题

529

帖子

4716

积分

积分
4716
发表于 2016-8-30 07:16:34 | 显示全部楼层
非常不错,谢谢
回复

使用道具 举报

0

主题

1

帖子

6

积分

积分
6
发表于 2016-9-3 15:31:01 | 显示全部楼层
aaaaaaaaaaaaaaaaaaaaaaaaaaaa
回复

使用道具 举报

0

主题

9

帖子

29

积分

积分
29
发表于 2016-9-11 18:37:44 | 显示全部楼层
666666666愈合功放坟头
回复

使用道具 举报

0

主题

76

帖子

86

积分

积分
86
发表于 2016-9-11 23:08:12 | 显示全部楼层
招魂2.The.Conjuring.2.2016.1080p.BluRay.x264-SPARKS
回复

使用道具 举报

您需要登录后才可以回帖 登录 | 立即注册

本版积分规则

Archiver|手机版|小黑屋|灵极客/零极客 - 分享精品(中文字幕) | 联系我们

GMT+8, 2018-11-13 14:59 , Processed in 0.071210 second(s), 20 queries .

Powered by Discuz! X3.2

© 2001-2013 Comsenz Inc.

快速回复 返回顶部 返回列表